osu file format v14

[General]
AudioFilename: Koven - Get This Right.mp3
AudioLeadIn: 1500
PreviewTime: 93028
Countdown: 0
SampleSet: Soft
StackLeniency: 0.7
Mode: 0
LetterboxInBreaks: 0
WidescreenStoryboard: 0

[Editor]
Bookmarks: 27010,68871
DistanceSpacing: 0.9
BeatDivisor: 8
GridSize: 32
TimelineZoom: 1.8

[Metadata]
Title:Get This Right
TitleUnicode:Get This Right
Artist:Koven
ArtistUnicode:Koven
Creator:Aiceo
Version:byfar's Extra
Source:
Tags:toybot dnb drum and bass edm appleeaterx ProfessionalBox Sharkie Priti guineaQ byfar
BeatmapID:773195
BeatmapSetID:347947

[Difficulty]
HPDrainRate:7
CircleSize:4
OverallDifficulty:9
ApproachRate:9
SliderMultiplier:2.5
SliderTickRate:1

[Events]
//Background and Video events
0,0,"holding_for_so_long_by_nanomortis-d8m6dkm.jpg",0,0
//Break Periods
//Storyboard Layer 0 (Background)
//Storyboard Layer 1 (Fail)
//Storyboard Layer 2 (Pass)
//Storyboard Layer 3 (Foreground)
//Storyboard Sound Samples

[TimingPoints]
4685,697.674418604651,4,2,1,85,1,0
27010,-100,4,2,1,25,0,0
60498,-86.9565217391304,4,2,1,30,0,0
69568,-86.9565217391304,4,2,1,25,0,0
70266,-86.9565217391304,4,2,1,20,0,0
70964,-86.9565217391304,4,2,1,15,0,0
71138,-86.9565217391304,4,1,1,10,0,0
71225,-86.9565217391304,4,1,1,20,0,0
71312,-86.9565217391304,4,1,1,30,0,0
71400,-86.9565217391304,4,1,1,40,0,0
71487,-86.9565217391304,4,1,1,50,0,0
71661,-62.5,4,2,1,85,0,0
93289,-62.5,4,2,1,65,0,0
93464,-62.5,4,2,1,60,0,0
93638,-62.5,4,2,1,55,0,0
93725,-62.5,4,2,1,45,0,0
93812,-62.5,4,2,1,35,0,0
93900,-62.5,4,2,1,25,0,0
93987,-55.5555555555556,4,2,1,85,0,1
105062,-55.5555555555556,4,2,1,60,0,1
105150,-55.5555555555556,4,2,1,85,0,1
115440,-55.5555555555556,4,2,1,60,0,1
115528,-55.5555555555556,4,2,1,100,0,1
115615,-62.5,4,2,1,85,0,0
116225,-62.5,4,2,1,85,0,1
116312,-62.5,4,2,1,100,0,0

[Colours]
Combo1 : 230,176,96
Combo2 : 240,119,113

[HitObjects]
133,210,27010,6,0,B|91:231|42:211|24:169,1,125,0|0,0:0|0:0,0:0:0:0:
109,17,27708,2,0,B|124:82|124:82|92:155,1,125,0|0,0:0|0:0,0:0:0:0:
217,91,28231,1,0,0:0:0:0:
217,91,28580,2,0,L|362:104,1,125,0|0,0:0|0:0,0:0:0:0:
426,114,29103,1,0,0:0:0:0:
490,351,29801,6,0,B|501:304|476:257|432:237|391:244,1,125,0|0,0:0|0:0,0:0:0:0:
271,344,30498,2,0,L|411:329,1,125,0|0,0:0|0:0,0:0:0:0:
261,262,31196,2,0,B|249:241|247:217|253:196,1,62.5,0|0,0:0|0:0,0:0:0:0:
193,320,31545,1,0,0:0:0:0:
193,320,31719,2,0,B|148:321|112:288|105:247,1,125,0|0,0:0|0:0,0:0:0:0:
153,180,32243,1,0,0:0:0:0:
324,91,32591,6,0,B|295:123|242:125|208:104|208:104|172:82|121:83|92:112,1,250,0|0,0:0|0:0,0:0:0:0:
260,36,33638,1,0,0:0:0:0:
324,91,33812,1,0,0:0:0:0:
324,91,33987,2,0,L|447:71,1,125,0|0,0:0|0:0,0:0:0:0:
412,188,34510,2,0,L|350:178,1,62.5,0|0,0:0|0:0,0:0:0:0:
270,167,34859,1,0,0:0:0:0:
270,167,35033,1,0,0:0:0:0:
36,281,35382,6,0,B|65:313|118:315|152:294|152:294|188:272|239:273|268:302,2,250,0|0|0,0:0|0:0|0:0,0:0:0:0:
207,364,37475,1,0,0:0:0:0:
331,133,38173,6,0,B|355:95|401:81|440:95,1,125,0|0,0:0|0:0,0:0:0:0:
325,227,38871,2,0,L|167:203,1,125,0|0,0:0|0:0,0:0:0:0:
119,195,39394,1,0,0:0:0:0:
119,195,39743,2,0,B|162:154|156:82|100:44|47:53,1,187.5,0|0,0:0|0:0,0:0:0:0:
24,248,40615,1,0,0:0:0:0:
259,351,40964,6,0,B|230:385|181:389|147:364,1,125,0|0,0:0|0:0,0:0:0:0:
295,272,41487,2,0,L|382:283,1,62.5,0|0,0:0|0:0,0:0:0:0:
244,192,41836,1,0,0:0:0:0:
244,192,42359,2,0,L|331:181,1,62.5,0|0,0:0|0:0,0:0:0:0:
417,109,43057,2,0,L|330:98,1,62.5,0|0,0:0|0:0,0:0:0:0:
188,75,43405,1,0,0:0:0:0:
260,21,43580,1,0,0:0:0:0:
244,191,43754,1,0,0:0:0:0:
244,191,43929,6,0,B|210:161|162:161|129:185,1,125,0|0,0:0|0:0,0:0:0:0:
171,381,44452,2,0,L|184:256,1,125,0|0,0:0|0:0,0:0:0:0:
295,312,44975,1,0,0:0:0:0:
295,312,45150,2,0,B|343:329|343:329|497:306,1,187.5,0|0,0:0|0:0,0:0:0:0:
495,148,45847,2,0,L|350:170,1,125,0|0,0:0|0:0,0:0:0:0:
144,30,46545,6,0,B|196:-19|288:1|315:87|277:144,2,250,0|0|0,0:0|0:0|0:0,0:0:0:0:
53,326,48638,1,0,0:0:0:0:
148,307,48812,1,0,0:0:0:0:
85,238,48987,1,0,0:0:0:0:
116,384,49161,1,0,0:0:0:0:
175,215,49336,6,0,B|159:153|90:118|24:148|1:201,1,187.5,0|0,0:0|0:0,0:0:0:0:
85,238,50033,1,0,0:0:0:0:
233,135,50208,2,0,B|279:114|329:118|370:140,1,125,0|0,0:0|0:0,0:0:0:0:
454,72,50731,2,0,L|428:267,1,187.5,0|0,0:0|0:0,0:0:0:0:
393,353,51429,2,0,B|369:304|317:278|263:285|226:314,1,187.5,0|0,0:0|0:0,0:0:0:0:
140,384,52126,6,0,L|105:187,1,187.5,0|0,0:0|0:0,0:0:0:0:
258,82,52824,1,0,0:0:0:0:
180,132,52998,2,0,B|138:128|102:109,1,62.5,0|0,0:0|0:0,0:0:0:0:
314,150,53347,2,0,B|354:160|394:155,1,62.5,0|0,0:0|0:0,0:0:0:0:
188,52,53696,2,0,B|159:22|143:-15,1,62.5,0|0,0:0|0:0,0:0:0:0:
346,77,54045,1,0,0:0:0:0:
346,77,54132,1,0,0:0:0:0:
346,77,54219,2,0,B|392:69|427:39|443:-1,1,125,0|0,0:0|0:0,0:0:0:0:
283,3,54743,1,0,0:0:0:0:
212,123,54917,6,0,B|182:187|215:263|282:285,1,187.5,,,0:0:0:0:
512,345,55615,2,0,B|471:292|395:285|345:324,1,187.5,0|0,0:0|0:0,0:0:0:0:
379,153,56312,2,0,B|383:185|374:215|357:238,1,62.5,0|0,0:0|0:0,0:0:0:0:
253,360,56661,2,0,B|227:379|197:386|168:383,1,62.5,0|0,0:0|0:0,0:0:0:0:
18,250,57010,1,0,0:0:0:0:
42,246,57097,1,0,0:0:0:0:
65,252,57184,1,0,0:0:0:0:
87,263,57272,1,0,0:0:0:0:
101,283,57359,1,0,0:0:0:0:
108,306,57446,1,0,0:0:0:0:
107,330,57533,1,0,0:0:0:0:
96,352,57621,1,0,0:0:0:0:
75,366,57708,6,0,B|39:322|42:258|81:216|130:204,1,187.5,0|0,0:0|0:0,0:0:0:0:
194,83,58405,6,0,B|178:134|198:188|241:219|287:224,1,187.5,0|0,0:0|0:0,0:0:0:0:
417,99,59103,2,0,L|271:119,1,125,0|0,0:0|0:0,0:0:0:0:
400,207,59626,1,0,0:0:0:0:
400,207,59801,6,0,B|418:273|373:340|305:348,1,187.5,0|0,0:0|0:0,0:0:0:0:
217,353,60498,6,0,L|146:341,1,71.8750013709069,0|0,0:0|0:0,0:0:0:0:
280,115,60847,1,0,0:0:0:0:
309,214,61022,1,0,0:0:0:0:
177,108,61196,5,0,0:0:0:0:
177,108,61371,2,0,B|156:84|149:54|153:25,1,71.8750013709069,0|0,0:0|0:0,0:0:0:0:
130,203,61719,1,0,0:0:0:0:
130,203,61807,1,0,0:0:0:0:
130,203,61894,6,0,L|41:221,1,71.8750013709069,0|0,0:0|0:0,0:0:0:0:
280,115,62243,2,0,L|302:46,1,71.8750013709069,,,0:0:0:0:
211,271,62591,6,0,B|202:295|202:319|209:342,1,71.8750013709069,0|0,0:0|0:0,0:0:0:0:
177,108,62940,2,0,B|156:84|149:54|153:25,1,71.8750013709069,0|0,0:0|0:0,0:0:0:0:
309,214,63289,6,0,B|360:230|413:199|428:150,1,143.750002741814,0|0,0:0|0:0,0:0:0:0:
443,58,63812,1,0,0:0:0:0:
443,58,63987,2,0,L|363:74,1,71.8750013709069,0|0,0:0|0:0,0:0:0:0:
142,256,64336,2,0,L|212:270,1,71.8750013709069,0|0,0:0|0:0,0:0:0:0:
381,289,64684,5,0,0:0:0:0:
381,289,64772,1,0,0:0:0:0:
381,289,64859,1,0,0:0:0:0:
309,214,65033,2,0,B|293:186|297:153|316:129,1,71.8750013709069,0|0,0:0|0:0,0:0:0:0:
284,313,65382,2,0,B|267:341|236:353|207:349,1,71.8750013709069,0|0,0:0|0:0,0:0:0:0:
402,198,65731,1,0,0:0:0:0:
402,198,65905,1,0,0:0:0:0:
215,246,66080,5,0,0:0:0:0:
381,289,66254,1,0,0:0:0:0:
215,246,66429,1,0,0:0:0:0:
381,289,66603,1,0,0:0:0:0:
131,289,66778,5,0,0:0:0:0:
297,246,66952,1,0,0:0:0:0:
131,289,67127,1,0,0:0:0:0:
297,246,67301,1,0,0:0:0:0:
201,339,67475,5,0,0:0:0:0:
133,160,67650,1,0,0:0:0:0:
201,339,67824,1,0,0:0:0:0:
133,160,67999,1,0,0:0:0:0:
62,307,68173,6,0,B|88:308|112:301|132:289,1,71.8750013709069,0|0,0:0|0:0,0:0:0:0:
338,334,68522,2,0,B|313:331|291:320|273:304,1,71.8750013709069,0|0,0:0|0:0,0:0:0:0:
47,208,68871,6,0,L|32:150,3,35.9375006854534,0|0|0|0,0:0|0:0|0:0|0:0,0:0:0:0:
133,160,69219,2,0,L|138:124,3,35.9375006854534,,,0:0:0:0:
214,217,69568,2,0,B|237:171|288:151|334:166,1,143.750002741814,0|0,0:0|0:0,0:0:0:0:
486,55,70091,2,0,L|455:196,1,143.750002741814,0|0,0:0|0:0,0:0:0:0:
419,322,70615,1,0,0:0:0:0:
266,274,70789,1,0,0:0:0:0:
266,274,70876,1,0,0:0:0:0:
266,274,70964,5,0,0:0:0:0:
233,289,71051,1,0,0:0:0:0:
197,291,71138,1,0,0:0:0:0:
163,278,71225,1,0,0:0:0:0:
136,253,71313,1,0,0:0:0:0:
103,238,71400,1,0,0:0:0:0:
67,236,71487,1,0,0:0:0:0:
33,249,71574,1,0,0:0:0:0:
9,277,71661,2,0,B|-8:311|1:351|27:375,1,100,4|0,1:0|0:0,0:0:0:0:
206,207,72010,1,0,1:0:0:0:
82,317,72184,1,2,0:0:0:0:
152,138,72359,5,8,0:0:0:0:
185,123,72446,1,0,0:0:0:0:
221,121,72533,1,0,0:0:0:0:
255,134,72620,1,0,0:0:0:0:
282,159,72708,1,0,0:0:0:0:
357,244,72882,5,8,0:0:0:0:
357,244,72969,1,0,0:0:0:0:
357,244,73057,2,0,L|425:233,1,50,0|0,0:0|0:0,0:0:0:0:
492,220,73231,1,0,0:0:0:0:
380,380,73405,1,8,0:0:0:0:
218,321,73580,5,0,0:0:0:0:
204,300,73667,1,0,0:0:0:0:
191,279,73754,1,0,0:0:0:0:
194,255,73841,1,0,0:0:0:0:
201,230,73929,6,0,B|191:210|173:195|154:188,1,50,8|0,0:0|0:0,0:0:0:0:
197,365,74103,2,0,B|212:345|218:321,1,50,0|0,0:0|0:0,0:0:0:0:
280,262,74278,2,0,L|329:254,1,50,0|0,0:0|0:0,0:0:0:0:
111,294,74452,6,0,B|71:310|27:288|14:248,1,100,0|0,1:0|0:0,0:0:0:0:
298,163,74801,1,0,1:0:0:0:
324,352,74975,1,2,0:0:0:0:
103,121,75150,6,0,B|107:85|136:60|169:57,1,100,8|0,0:0|0:0,0:0:0:0:
280,262,75498,1,0,0:0:0:0:
512,152,75673,1,8,0:0:0:0:
478,148,75760,1,0,0:0:0:0:
443,143,75847,1,0,0:0:0:0:
408,139,75934,1,0,0:0:0:0:
374,134,76021,1,0,0:0:0:0:
280,262,76196,5,8,0:0:0:0:
314,258,76283,1,0,0:0:0:0:
349,253,76370,1,0,0:0:0:0:
384,249,76457,1,0,0:0:0:0:
418,244,76544,1,0,0:0:0:0:
488,56,76719,2,0,L|480:128,1,50,8|0,0:0|0:0,0:0:0:0:
466,241,76894,2,0,L|472:191,1,50,0|0,0:0|0:0,0:0:0:0:
478,148,77068,1,0,0:0:0:0:
326,335,77243,6,0,B|296:355|259:353|233:334,1,100,0|0,1:0|0:0,0:0:0:0:
160,192,77591,2,0,L|143:73,1,100,0|0,1:0|0:0,0:0:0:0:
380,32,77940,2,0,L|366:131,1,100,8|0,0:0|0:0,0:0:0:0:
349,253,78289,1,0,0:0:0:0:
216,28,78464,5,8,0:0:0:0:
186,9,78551,1,0,0:0:0:0:
153,0,78638,1,0,0:0:0:0:
118,2,78725,1,0,0:0:0:0:
86,16,78812,1,0,0:0:0:0:
22,211,78987,1,8,0:0:0:0:
56,206,79074,1,0,0:0:0:0:
91,201,79161,1,0,0:0:0:0:
126,197,79248,1,0,0:0:0:0:
160,192,79335,1,0,0:0:0:0:
188,368,79510,1,8,0:0:0:0:
154,363,79597,1,0,0:0:0:0:
119,359,79684,1,0,0:0:0:0:
84,354,79771,1,0,0:0:0:0:
50,349,79858,1,0,0:0:0:0:
263,278,80033,6,0,B|301:296|317:340|302:377,1,100,0|0,1:0|0:0,0:0:0:0:
91,201,80382,2,0,L|119:87,1,100,0|0,1:0|0:0,0:0:0:0:
312,198,80731,2,0,B|314:240|284:275|245:281,1,100,8|0,0:0|0:0,0:0:0:0:
153,285,81080,1,0,0:0:0:0:
266,130,81254,5,8,0:0:0:0:
298,117,81341,1,0,0:0:0:0:
333,119,81428,1,0,0:0:0:0:
364,134,81515,1,0,0:0:0:0:
386,161,81602,1,0,0:0:0:0:
198,183,81778,1,8,0:0:0:0:
194,147,81865,1,0,0:0:0:0:
191,113,81952,1,0,0:0:0:0:
188,77,82039,1,0,0:0:0:0:
184,43,82126,1,0,0:0:0:0:
312,198,82301,1,8,0:0:0:0:
305,232,82388,1,0,0:0:0:0:
299,267,82475,1,0,0:0:0:0:
293,301,82562,1,0,0:0:0:0:
286,336,82649,1,2,0:0:0:0:
183,43,82824,6,0,L|275:2,1,100,2|0,1:2|0:0,0:0:0:0:
431,104,83173,2,0,L|332:119,1,100,0|0,1:0|0:0,0:0:0:0:
512,263,83522,2,0,L|413:247,1,100,8|0,0:0|0:0,0:0:0:0:
305,232,83871,1,0,0:0:0:0:
166,367,84045,5,8,0:0:0:0:
198,380,84132,1,0,0:0:0:0:
233,378,84219,1,0,0:0:0:0:
264,363,84306,1,0,0:0:0:0:
286,336,84393,1,0,0:0:0:0:
91,281,84568,1,8,0:0:0:0:
84,247,84655,1,0,0:0:0:0:
78,212,84742,1,0,0:0:0:0:
72,178,84829,1,0,0:0:0:0:
65,143,84916,1,0,0:0:0:0:
331,94,85091,1,8,0:0:0:0:
324,129,85178,1,0,0:0:0:0:
318,163,85265,1,0,0:0:0:0:
312,198,85352,1,0,0:0:0:0:
305,232,85440,2,0,L|235:216,1,50,,,0:0:0:0:
129,78,85615,6,0,B|153:41|204:35|237:64,1,100,0|0,1:0|0:0,0:0:0:0:
412,211,85964,2,0,B|432:240|469:250|500:238,1,100,0|0,1:0|0:0,0:0:0:0:
215,293,86312,1,8,0:0:0:0:
180,300,86399,1,0,0:0:0:0:
146,306,86486,1,0,0:0:0:0:
111,312,86573,1,0,0:0:0:0:
77,319,86660,1,0,0:0:0:0:
166,224,86836,5,8,0:0:0:0:
166,224,86923,1,0,0:0:0:0:
166,224,87010,2,0,B|173:201|174:177|169:155,1,50,0|0,0:0|0:0,0:0:0:0:
123,28,87184,2,0,B|121:53|128:77,1,50,0|0,0:0|0:0,0:0:0:0:
262,193,87359,1,8,0:0:0:0:
292,208,87446,1,0,0:0:0:0:
327,209,87533,1,0,0:0:0:0:
359,195,87620,1,0,0:0:0:0:
382,169,87707,1,0,0:0:0:0:
491,42,87882,1,8,0:0:0:0:
491,42,87969,1,0,0:0:0:0:
491,42,88057,2,0,L|440:84,1,50,2|0,0:0|0:0,0:0:0:0:
239,106,88231,2,0,B|263:102|286:107|304:118,1,50,0|0,0:0|0:0,0:0:0:0:
411,251,88405,6,0,L|429:349,1,100,0|0,1:0|0:0,0:0:0:0:
447,84,88754,2,0,L|512:8,1,100,0|0,1:0|0:0,0:0:0:0:
288,110,89103,2,0,L|189:91,1,100,8|0,0:0|0:0,0:0:0:0:
68,66,89452,1,0,0:0:0:0:
191,198,89626,5,8,0:0:0:0:
205,229,89713,1,0,0:0:0:0:
205,263,89800,1,0,0:0:0:0:
190,295,89887,1,0,0:0:0:0:
163,316,89974,1,0,0:0:0:0:
27,225,90150,1,8,0:0:0:0:
51,229,90237,1,0,0:0:0:0:
76,234,90324,1,0,0:0:0:0:
100,239,90411,1,0,0:0:0:0:
125,243,90498,1,0,0:0:0:0:
289,270,90673,1,8,0:0:0:0:
289,270,90760,1,0,0:0:0:0:
289,270,90847,2,0,L|354:256,1,50,2|0,0:0|0:0,0:0:0:0:
429,243,91022,1,2,0:0:0:0:
191,198,91196,6,0,B|167:171|169:132|192:106,1,100,0|0,1:0|0:0,0:0:0:0:
362,28,91545,2,0,L|343:152,1,100,0|0,1:0|0:0,0:0:0:0:
413,341,91894,2,0,L|429:243,1,100,8|0,0:0|0:0,0:0:0:0:
449,143,92243,1,0,0:0:0:0:
196,100,92417,5,8,0:0:0:0:
171,96,92504,1,0,0:0:0:0:
147,91,92591,1,0,0:0:0:0:
122,86,92678,1,0,0:0:0:0:
98,82,92765,1,0,0:0:0:0:
191,198,92940,1,10,0:0:0:0:
166,202,93027,1,2,0:0:0:0:
142,207,93114,1,2,0:0:0:0:
117,212,93201,1,2,0:0:0:0:
93,216,93288,5,0,1:0:0:0:
109,247,93376,1,0,1:0:0:0:
117,281,93464,1,0,1:0:0:0:
116,315,93551,1,0,1:0:0:0:
97,344,93638,5,0,1:0:0:0:
142,325,93725,1,0,1:0:0:0:
192,327,93812,1,0,1:0:0:0:
236,350,93899,1,0,1:0:0:0:
277,381,93987,6,0,L|399:365,1,112.499996566773,4|0,1:0|0:0,0:0:0:0:
488,349,94336,1,0,1:0:0:0:
310,248,94510,1,2,0:0:0:0:
426,170,94684,5,8,0:0:0:0:
426,170,94772,1,0,0:0:0:0:
426,170,94858,2,0,B|438:148|444:125|443:102,1,56.2499982833863,0|0,0:0|0:0,0:0:0:0:
233,27,95033,2,0,B|235:55|249:80,1,56.2499982833863,0|0,0:0|0:0,0:0:0:0:
369,17,95208,5,8,0:0:0:0:
404,1,95295,1,0,0:0:0:0:
444,2,95382,1,0,0:0:0:0:
479,18,95469,1,0,0:0:0:0:
506,46,95556,1,0,0:0:0:0:
284,229,95731,1,8,0:0:0:0:
244,224,95818,1,0,0:0:0:0:
205,220,95905,1,0,0:0:0:0:
166,215,95992,1,0,0:0:0:0:
127,211,96079,1,0,0:0:0:0:
13,127,96254,1,8,0:0:0:0:
18,167,96341,1,0,0:0:0:0:
22,206,96428,1,0,0:0:0:0:
27,245,96515,1,0,0:0:0:0:
31,284,96602,1,0,0:0:0:0:
168,89,96778,6,0,B|200:65|243:70|269:97,1,112.499996566773,0|0,1:0|0:0,0:0:0:0:
326,320,97126,2,0,L|202:306,1,112.499996566773,0|0,1:0|0:0,0:0:0:0:
168,89,97475,2,0,B|183:53|223:35|258:46,1,112.499996566773,8|0,0:0|0:0,0:0:0:0:
310,229,97824,1,0,0:0:0:0:
453,115,97998,6,0,L|439:60,1,56.2499982833863,8|0,0:0|0:0,0:0:0:0:
375,131,98173,2,0,L|361:76,1,56.2499982833863,0|0,0:0|0:0,0:0:0:0:
432,196,98347,1,0,0:0:0:0:
326,320,98522,1,8,0:0:0:0:
286,315,98609,1,0,0:0:0:0:
247,311,98696,1,0,0:0:0:0:
208,306,98783,1,0,0:0:0:0:
169,302,98870,1,0,0:0:0:0:
0,195,99045,1,8,0:0:0:0:
21,162,99132,1,0,0:0:0:0:
56,144,99219,1,0,0:0:0:0:
95,143,99306,1,0,0:0:0:0:
130,160,99393,1,8,0:0:0:0:
113,372,99568,6,0,B|75:344|69:290|97:254,1,112.499996566773,0|0,1:0|0:0,0:0:0:0:
272,111,99917,2,0,L|260:241,1,112.499996566773,0|0,1:0|0:0,0:0:0:0:
410,63,100266,1,8,0:0:0:0:
410,63,100353,1,0,0:0:0:0:
410,62,100440,2,0,B|390:64|373:74|361:87,1,56.2499982833863,0|0,0:0|0:0,0:0:0:0:
467,178,100615,2,0,B|455:162|439:152|422:148,1,56.2499982833863,0|0,0:0|0:0,0:0:0:0:
272,111,100789,5,8,0:0:0:0:
270,71,100876,1,0,0:0:0:0:
286,36,100963,1,0,0:0:0:0:
315,10,101050,1,0,0:0:0:0:
353,0,101137,1,0,0:0:0:0:
261,223,101312,1,8,0:0:0:0:
221,219,101399,1,0,0:0:0:0:
182,215,101486,1,0,0:0:0:0:
143,212,101573,1,0,0:0:0:0:
104,208,101660,1,0,0:0:0:0:
254,310,101836,1,8,0:0:0:0:
214,306,101923,1,0,0:0:0:0:
175,302,102010,1,0,0:0:0:0:
136,299,102097,1,0,0:0:0:0:
97,295,102184,1,8,0:0:0:0:
361,86,102359,6,0,B|396:117|401:168|379:205,1,112.499996566773,0|0,1:0|0:0,0:0:0:0:
198,129,102708,2,0,L|174:18,1,112.499996566773,0|0,1:0|0:0,0:0:0:0:
292,136,103057,5,8,0:0:0:0:
282,174,103144,1,0,0:0:0:0:
256,203,103231,1,0,0:0:0:0:
221,219,103318,1,0,0:0:0:0:
181,217,103405,1,0,0:0:0:0:
281,20,103580,1,8,0:0:0:0:
321,16,103667,1,0,0:0:0:0:
360,12,103754,1,0,0:0:0:0:
399,9,103841,1,0,0:0:0:0:
438,5,103928,1,0,0:0:0:0:
198,129,104103,1,8,0:0:0:0:
158,125,104190,1,0,0:0:0:0:
119,121,104277,1,0,0:0:0:0:
82,119,104364,1,0,0:0:0:0:
41,114,104451,1,0,0:0:0:0:
204,73,104626,6,0,L|196:143,1,56.2499982833863,8|0,0:0|0:0,0:0:0:0:
190,223,104801,2,0,L|182:293,1,56.2499982833863,0|0,0:0|0:0,0:0:0:0:
172,384,104975,2,0,L|102:376,1,56.2499982833863,8|0,1:2|0:0,0:0:0:0:
272,341,105150,6,0,B|313:334|352:350|378:378,1,112.499996566773,4|0,0:1|0:0,0:0:0:0:
190,223,105498,2,0,L|171:112,1,112.499996566773,0|0,1:0|0:0,0:0:0:0:
447,168,105847,1,8,0:0:0:0:
437,206,105934,1,0,0:0:0:0:
411,235,106021,1,0,0:0:0:0:
376,251,106108,1,0,0:0:0:0:
336,249,106195,1,0,0:0:0:0:
355,62,106371,5,8,0:0:0:0:
394,66,106458,1,0,0:0:0:0:
433,69,106545,1,0,0:0:0:0:
472,73,106632,1,0,0:0:0:0:
512,77,106719,1,0,0:0:0:0:
358,161,106894,1,8,0:0:0:0:
318,157,106981,1,0,0:0:0:0:
279,153,107068,1,0,0:0:0:0:
240,150,107155,1,0,0:0:0:0:
201,146,107242,1,0,0:0:0:0:
123,209,107417,2,0,B|108:223|103:242|106:260,1,56.2499982833863,8|0,0:0|0:0,0:0:0:0:
135,69,107591,2,0,B|123:53|121:33|127:15,1,56.2499982833863,8|0,0:0|0:0,0:0:0:0:
56,137,107766,2,0,L|0:131,1,56.2499982833863,8|0,0:0|0:0,0:0:0:0:
220,23,107940,6,0,L|365:7,1,112.499996566773,0|0,1:0|0:0,0:0:0:0:
198,269,108289,2,0,L|338:309,1,112.499996566773,0|0,1:0|0:0,0:0:0:0:
56,137,108638,1,8,0:0:0:0:
56,137,108725,1,0,0:0:0:0:
56,137,108812,2,0,L|0:131,1,56.2499982833863,0|0,0:0|0:0,0:0:0:0:
201,146,108987,2,0,L|257:152,1,56.2499982833863,,,0:0:0:0:
144,344,109161,5,8,0:0:0:0:
114,317,109248,1,0,0:0:0:0:
100,281,109335,1,0,0:0:0:0:
102,242,109422,1,0,0:0:0:0:
123,209,109509,1,0,0:0:0:0:
355,254,109684,1,8,0:0:0:0:
315,258,109771,1,0,0:0:0:0:
276,262,109858,1,0,0:0:0:0:
237,265,109945,1,0,0:0:0:0:
198,269,110032,1,0,0:0:0:0:
43,130,110208,1,8,0:0:0:0:
83,134,110295,1,0,0:0:0:0:
122,138,110382,1,8,0:0:0:0:
161,141,110469,1,0,0:0:0:0:
200,145,110556,1,8,0:0:0:0:
460,266,110731,6,0,B|467:227|450:190|420:168,1,112.499996566773,0|0,1:0|0:0,0:0:0:0:
326,41,111080,2,0,L|310:153,1,112.499996566773,0|0,1:0|0:0,0:0:0:0:
82,52,111429,5,8,0:0:0:0:
109,22,111516,1,0,0:0:0:0:
145,8,111603,1,0,0:0:0:0:
183,10,111690,1,0,0:0:0:0:
217,31,111777,1,0,0:0:0:0:
58,287,111952,1,8,0:0:0:0:
54,248,112039,1,0,0:0:0:0:
51,209,112126,1,0,0:0:0:0:
47,170,112213,1,0,0:0:0:0:
43,130,112300,1,0,0:0:0:0:
310,153,112475,1,8,0:0:0:0:
303,193,112562,1,0,0:0:0:0:
295,231,112649,1,0,0:0:0:0:
289,270,112736,1,0,0:0:0:0:
282,309,112823,1,0,0:0:0:0:
171,284,112998,1,8,0:0:0:0:
172,248,113085,1,0,0:0:0:0:
175,214,113172,1,8,0:0:0:0:
178,179,113259,1,0,0:0:0:0:
180,144,113346,1,8,0:0:0:0:
417,242,113522,5,0,1:0:0:0:
336,64,113696,1,0,0:0:0:0:
376,315,113871,2,0,B|417:340|469:325|491:284,1,112.499996566773,0|2,1:0|0:0,0:0:0:0:
310,153,114219,1,8,0:0:0:0:
270,160,114306,1,0,0:0:0:0:
232,168,114393,1,0,0:0:0:0:
193,174,114480,1,0,0:0:0:0:
154,181,114567,1,0,0:0:0:0:
453,0,114743,5,8,0:0:0:0:
489,34,114830,1,0,0:0:0:0:
505,81,114917,1,0,0:0:0:0:
495,130,115004,1,0,0:0:0:0:
467,172,115091,1,0,0:0:0:0:
262,345,115266,1,8,0:0:0:0:
210,47,115441,1,0,1:0:0:0:
210,47,115528,1,0,1:0:0:0:
210,47,115615,1,0,1:0:0:0:
416,243,115789,1,8,0:0:0:0:
102,314,115964,1,2,0:0:0:0:
342,23,116312,5,4,0:1:0:0:
